SaveText.Ru

Без имени
  1. Общее
  2. Уникальный идентификатор                 : 340219166021914405184453246739882776748 (0xFFF3D3F4815F609ED9FA12C70B5118AC)
  3. Полное имя                               : A.Discovery.of.Witches.2021.S02.1080pA.Discovery.of.Witches.S02E10.WEBRip.1080p.rus.5.1.HDREZKA.STUDIO.mkv
  4. Формат                                   : Matroska
  5. Версия формата                           : Version 4
  6. Размер файла                             : 1,12 Гбайт
  7. Продолжительность                        : 44 м. 10 с.
  8. Режим общего битрейта                    : Переменный
  9. Общий поток                              : 3 644 Кбит/сек
  10. Дата кодирования                         : UTC 2021-01-10 02:08:54
  11. Программа кодирования                    : mkvmerge v28.2.0 ('The Awakening') 64-bit
  12. Библиотека кодирования                   : libebml v1.3.6 + libmatroska v1.4.9
  13.  
  14. Видео
  15. Идентификатор                            : 1
  16. Формат                                   : AVC
  17. Формат/Информация                        : Advanced Video Codec
  18. Профиль формата                          : [email protected]
  19. Настройки формата                        : CABAC / 1 Ref Frames
  20. Параметр CABAC формата                   : Да
  21. Параметр RefFrames формата               : 1 кадр
  22. Идентификатор кодека                     : V_MPEG4/ISO/AVC
  23. Продолжительность                        : 44 м. 10 с.
  24. Вид битрейта                             : Переменный
  25. Битрейт                                  : 3 194 Кбит/сек
  26. Максимальный битрейт                     : 2 000 Кбит/сек
  27. Ширина                                   : 1 920 пикселей
  28. Высота                                   : 1 080 пикселей
  29. Соотношение сторон                       : 16:9
  30. Режим частоты кадров                     : Постоянный
  31. Частота кадров                           : 25,000 кадров/сек
  32. Цветовое пространство                    : YUV
  33. Субдискретизация насыщенности            : 4:2:0
  34. Битовая глубина                          : 8 бит
  35. Тип развёртки                            : Прогрессивная
  36. Бит/(Пиксели*Кадры)                      : 0.062
  37. Размер потока                            : 1 009 Мбайт (88%)
  38. Default                                  : Да
  39. Forced                                   : Нет
  40.  
  41. Аудио
  42. Идентификатор                            : 2
  43. Формат                                   : AC-3
  44. Формат/Информация                        : Audio Coding 3
  45. Коммерческое название                    : Dolby Digital
  46. Идентификатор кодека                     : A_AC3
  47. Продолжительность                        : 44 м. 10 с.
  48. Вид битрейта                             : Постоянный
  49. Битрейт                                  : 448 Кбит/сек
  50. Каналы                                   : 6 каналов
  51. Channel layout                           : L R C LFE Ls Rs
  52. Частота                                  : 48,0 КГц
  53. Частота кадров                           : 31,250 кадров/сек (1536 SPF)
  54. Метод сжатия                             : С потерями
  55. Размер потока                            : 142 Мбайт (12%)
  56. Язык                                     : Russian
  57. Service kind                             : Complete Main
  58. Default                                  : Да
  59. Forced                                   : Нет
  60.  
  61. Текст
  62. Идентификатор                            : 3
  63. Формат                                   : UTF-8
  64. Идентификатор кодека                     : S_TEXT/UTF8
  65. Идентификатор кодека/Информация          : UTF-8 Plain Text
  66. Продолжительность                        : 6 м. 17 с.
  67. Битрейт                                  : 3 бит/сек
  68. Count of elements                        : 4
  69. Размер потока                            : 168 байт (0%)
  70. Язык                                     : Russian
  71. Default                                  : Нет
  72. Forced                                   : Нет

Share with your friends:

Print