SaveText.Ru

The Gunter Kallmann Chorus - 1
  1. General
  2. Complete name                            : D:МузыкаVinyl-ripThe Gunter Kallmann Chorus - 1964 - With All My Heart [24-64]side_A.flac
  3. Format                                   : FLAC
  4. Format/Info                              : Free Lossless Audio Codec
  5. File size                                : 224 MiB
  6. Duration                                 : 16 min 21 s
  7. Overall bit rate mode                    : Variable
  8. Overall bit rate                         : 1 914 kb/s
  9.  
  10. Audio
  11. Format                                   : FLAC
  12. Format/Info                              : Free Lossless Audio Codec
  13. Duration                                 : 16 min 21 s
  14. Bit rate mode                            : Variable
  15. Bit rate                                 : 1 914 kb/s
  16. Channel(s)                               : 2 channels
  17. Channel layout                           : L R
  18. Sampling rate                            : 64.0 kHz
  19. Bit depth                                : 24 bits
  20. Compression mode                         : Lossless
  21. Stream size                              : 224 MiB (100%)
  22. Writing library                          : libFLAC 1.3.2 (UTC 2017-01-01)
  23.  
  24. General
  25. Complete name                            : D:МузыкаVinyl-ripThe Gunter Kallmann Chorus - 1964 - With All My Heart [24-64]side_B.flac
  26. Format                                   : FLAC
  27. Format/Info                              : Free Lossless Audio Codec
  28. File size                                : 197 MiB
  29. Duration                                 : 15 min 0 s
  30. Overall bit rate mode                    : Variable
  31. Overall bit rate                         : 1 840 kb/s
  32. Recorded date                            : 2018-01-13T23:01+02:00
  33.  
  34. Audio
  35. Format                                   : FLAC
  36. Format/Info                              : Free Lossless Audio Codec
  37. Duration                                 : 15 min 0 s
  38. Bit rate mode                            : Variable
  39. Bit rate                                 : 1 840 kb/s
  40. Channel(s)                               : 2 channels
  41. Channel layout                           : L R
  42. Sampling rate                            : 64.0 kHz
  43. Bit depth                                : 24 bits
  44. Compression mode                         : Lossless
  45. Stream size                              : 197 MiB (100%)
  46. Writing library                          : libFLAC 1.3.2 (UTC 2017-01-01)

Share with your friends:

Распечатать